<?xml version="1.0" encoding="UTF-8" standalone="no"?>
<!DOCTYPE svg PUBLIC "-//W3C//DTD SVG 1.0//EN" "http://www.w3.org/TR/2001/REC-SVG-20010904/DTD/svg10.dtd">
<svg xmlns="http://www.w3.org/2000/svg" width="100%" height="100%">
<defs>
<font id="avenir-light" horiz-adv-x="443"><font-face font-family="Avenir LT Std 35 Light" units-per-em="1000" panose-1="2 11 4 2 2 2 3 2 2 4" ascent="756" descent="-244" alphabetic="0"/>
<missing-glyph horiz-adv-x="500" d="M0 0V700H500V0H0ZM250 395L420 650H80L250 395ZM280 350L450 95V605L280 350ZM80 50H420L250 305L80 50ZM50 605V95L220 350L50 605Z"/>
<glyph unicode=" " glyph-name="space" horiz-adv-x="260"/>
<glyph unicode="!" glyph-name="exclam" horiz-adv-x="370" d="M215 708V186H155V708H215ZM137 22T137 42T151 76T185 90T219 76T233 42T219 8T185 -6T151 8Z"/>
<glyph unicode="&quot;" glyph-name="quotedbl" horiz-adv-x="520" d="M161 480V708H221V480H161ZM299 480V708H359V480H299Z"/>
<glyph unicode="#" glyph-name="numbersign" horiz-adv-x="520" d="M91 0L121 229H13V277H128L150 433H42V481H157L187 708H239L208 481H347L378 708H430L399 481H507V433H392L371 277H479V229H364L334 0H282L312 229H173L143 0H91ZM319 277L340 433H202L181 277H319Z"/>
<glyph unicode="$" glyph-name="dollar" horiz-adv-x="520" d="M281 314V42Q338 44 375 84T413 185Q413 265 324 298L281 314ZM233 400V666Q183 657 148 621T113 530Q113 481 139 453T216 406L233 400ZM233 -79V-12Q177 -12 122 15T33 93L90 132Q114 92 152 68T233 42V332L162 358Q97 382 72 430T47 526Q47 605 104 659T233 720V787H281V720Q403 720 466 631L411 591Q388 626 353 646T281 666V384L351 360Q404 341 441 297T479 181Q479 99 421 46T281 -12V-79H233Z"/>
<glyph unicode="%" glyph-name="percent" horiz-adv-x="815" d="M38 477T38 548T88 669T210 720T331 670T382 548T332 427T210 376T89 426ZM92 598T92 548T126 464T210 430T293 464T328 548T294 632T210 666T127 632ZM433 89T433 160T483 281T605 332T726 282T777 160T727 39T605 -12T484 38ZM487 210T487 160T521 76T605 42T688 76T723 160T689 244T605 278T522 244ZM158 -6L614 742L660 714L203 -34L158 -6Z"/>
<glyph unicode="&amp;" glyph-name="ampersand" horiz-adv-x="704" d="M315 388L487 206L589 390H657L529 164L690 -5H601L495 109Q449 47 397 15T275 -18Q183 -18 121 39T59 188Q59 227 71 258T111 316T159 357T221 397Q194 430 180 449T150 501T135 565Q135 639 187 682T313 726Q378 726 425 684T473 576Q473 540 461 511T422 459T375 422T315 388ZM308 666Q263 666 232 638T201 566Q201 543 215 515T242 471T277 429Q306 444 322 453T361 481T396 522T407 571Q407 613 379 639T308 666ZM455 151L259 355Q234 340 221 331T186 305T153 273T134 236T125 190Q125 124 171 83T285 42Q382 42 455 151Z"/>
<glyph unicode="'" glyph-name="quotesingle" horiz-adv-x="260" d="M100 480V708H160V480H100Z"/>
<glyph unicode="(" glyph-name="parenleft" horiz-adv-x="260" d="M197 732L248 700Q185 621 152 509T118 288Q118 80 248 -126L201 -156Q132 -61 95 56T58 288Q58 407 94 523T197 732Z"/>
<glyph unicode=")" glyph-name="parenright" horiz-adv-x="260" d="M63 -156L12 -124Q75 -45 108 67T142 288Q142 496 12 702L59 732Q128 637 165 520T202 288Q202 169 166 53T63 -156Z"/>
<glyph unicode="*" glyph-name="asterisk" horiz-adv-x="444" d="M247 708V556L391 604L406 556L262 509L353 387L316 358L222 483L133 358L93 387L184 509L38 559L52 604L199 556V708H247Z"/>
<glyph unicode="+" glyph-name="plus" horiz-adv-x="666" d="M78 279V327H309V558H357V327H588V279H357V48H309V279H78Z"/>
<glyph unicode="," glyph-name="comma" horiz-adv-x="260" d="M50 -138L116 90H186L109 -138H50Z"/>
<glyph unicode="-" glyph-name="hyphen" horiz-adv-x="333" d="M43 210V264H290V210H43Z"/>
<glyph unicode="." glyph-name="period" horiz-adv-x="260" d="M82 22T82 42T96 76T130 90T164 76T178 42T164 8T130 -6T96 8Z"/>
<glyph unicode="/" glyph-name="slash" horiz-adv-x="370" d="M9 -18L313 744L365 726L62 -36L9 -18Z"/>
<glyph unicode="0" glyph-name="zero" horiz-adv-x="520" d="M26 302T26 354T31 452T51 549T91 636T159 696T260 720T360 696T428 636T468 549T489 452T494 354T489 256T469 159T429 72T361 12T260 -12T160 12T92 72T52 159T31 256ZM92 393T92 354T95 279T108 198T136 120T185 65T260 42T335 64T384 119T411 197T425 279T428 354T425 429T412 510T384 588T335 643T260 666T185 644T136 589T109 511T95 429Z"/>
<glyph unicode="1" glyph-name="one" horiz-adv-x="520" d="M261 0V624H260L132 519L95 565L270 708H321V0H261Z"/>
<glyph unicode="2" glyph-name="two" horiz-adv-x="520" d="M41 0V70L307 351Q338 384 355 405T390 462T408 534Q408 594 369 630T267 666Q213 666 175 634T125 550L55 557Q72 637 129 678T270 720Q355 720 414 671T474 539Q474 500 463 465T427 395T384 339T328 281L107 54H479V0H41Z"/>
<glyph unicode="3" glyph-name="three" horiz-adv-x="520" d="M41 127L106 148Q126 95 161 69T255 42Q331 42 372 85T413 196Q413 269 358 305T226 342H200V402H230Q295 402 341 435T388 536Q388 593 352 629T257 666Q214 666 179 644T123 583L66 615Q122 720 257 720Q343 720 398 673T454 538Q454 479 421 435T328 374V372Q395 360 437 310T479 191Q479 103 422 46T260 -12Q95 -12 41 127Z"/>
<glyph unicode="4" glyph-name="four" horiz-adv-x="520" d="M329 0V174H23V245L306 708H389V228H497V174H389V0H329ZM329 228V642H327L77 228H329Z"/>
<glyph unicode="5" glyph-name="five" horiz-adv-x="520" d="M451 708V654H159L156 429Q195 449 259 449Q358 449 418 381T479 215Q479 108 410 48T253 -12Q104 -12 41 108L103 139Q121 98 163 70T253 42Q310 42 361 87T413 211Q413 288 362 341T235 395Q164 395 95 347L101 708H451Z"/>
<glyph unicode="6" glyph-name="six" horiz-adv-x="520" d="M361 708L168 396H170Q206 426 275 426Q369 426 430 363T492 208Q492 112 427 50T260 -12T94 50T28 208Q28 242 40 279T62 335T93 389L285 708H361ZM329 374T260 374T143 326T94 208Q94 134 140 88T260 42T380 88T426 208Q426 277 378 325Z"/>
<glyph unicode="7" glyph-name="seven" horiz-adv-x="520" d="M443 708V654L161 0H94L381 654H41V708H443Z"/>
<glyph unicode="8" glyph-name="eight" horiz-adv-x="520" d="M66 536Q66 618 121 669T260 720T399 669T454 536Q454 485 423 440T341 380V379Q406 365 442 314T479 197Q479 103 417 46T260 -12T103 45T41 197Q41 263 77 314T179 379V380Q129 394 98 439T66 536ZM132 536Q132 482 168 444T260 406T352 444T388 536Q388 594 352 630T260 666T169 630T132 536ZM107 197Q107 132 149 87T260 42T370 87T413 197Q413 266 369 309T260 352T151 309T107 197Z"/>
<glyph unicode="9" glyph-name="nine" horiz-adv-x="520" d="M159 0L352 312H350Q314 282 245 282Q151 282 90 345T28 500Q28 596 93 658T260 720T426 658T492 500Q492 466 480 429T458 373T427 319L235 0H159ZM191 334T260 334T377 382T426 500Q426 574 380 620T260 666T140 620T94 500Q94 431 142 383Z"/>
<glyph unicode=":" glyph-name="colon" horiz-adv-x="260" d="M82 400T82 420T96 454T130 468T164 454T178 420T164 386T130 372T96 386ZM82 22T82 42T96 76T130 90T164 76T178 42T164 8T130 -6T96 8Z"/>
<glyph unicode=";" glyph-name="semicolon" horiz-adv-x="260" d="M50 -138L116 90H186L109 -138H50ZM82 400T82 420T96 454T130 468T164 454T178 420T164 386T130 372T96 386Z"/>
<glyph unicode="&lt;" glyph-name="less" horiz-adv-x="666" d="M584 561V511L136 303L584 95V45L82 279V327L584 561Z"/>
<glyph unicode="=" glyph-name="equal" horiz-adv-x="666" d="M78 351V399H588V351H78ZM78 207V255H588V207H78Z"/>
<glyph unicode="&gt;" glyph-name="greater" horiz-adv-x="666" d="M82 45V95L530 303L82 511V561L584 327V279L82 45Z"/>
<glyph unicode="?" glyph-name="question" horiz-adv-x="463" d="M204 186V270Q204 307 220 337T259 389T305 433T344 485T360 551Q360 605 329 638T243 672Q192 672 158 641T112 556L47 564Q60 639 113 682T242 726Q323 726 374 680T426 554Q426 508 410 473T369 414T321 370T281 319T264 250V186H204ZM187 22T187 42T201 76T235 90T269 76T283 42T269 8T235 -6T201 8Z"/>
<glyph unicode="@" glyph-name="at" horiz-adv-x="800" d="M254 280Q254 238 277 212T338 185Q404 185 455 262T507 412Q507 514 426 514Q378 514 338 475T276 383T254 280ZM622 549L525 259Q514 226 514 211Q514 185 540 185Q593 185 647 264T702 426Q702 535 617 606T416 678Q282 678 190 582T98 355Q98 221 192 126T418 30Q492 30 562 67T672 162H730Q685 80 599 31T418 -18Q257 -18 151 90T44 355Q44 511 151 618T414 726Q560 726 658 640T756 426Q756 305 683 218T522 131Q495 131 478 148T460 198H458Q436 171 401 151T329 131Q264 131 229 173T194 278Q194 390 260 479T430 568Q512 568 536 485H538L562 549H622Z"/>
<glyph unicode="A" glyph-name="A" horiz-adv-x="685" d="M5 0L314 708H382L680 0H606L529 188H154L74 0H5ZM505 248L345 636L180 248H505Z"/>
<glyph unicode="B" glyph-name="B" horiz-adv-x="630" d="M97 0V708H301Q347 708 383 701T454 675T509 617T529 521Q529 465 496 426T402 374V372Q472 367 516 320T560 198Q560 140 538 99T477 38T402 9T323 0H97ZM163 648V402H300Q348 402 382 414T433 445T456 483T463 521Q463 648 309 648H163ZM163 342V60H314Q369 60 407 73T462 109T487 153T494 196Q494 269 444 305T324 342H163Z"/>
<glyph unicode="C" glyph-name="C" horiz-adv-x="704" d="M626 152L680 111Q586 -18 417 -18Q256 -18 154 86T51 354T153 621T417 726Q574 726 661 615L607 570Q575 617 524 641T417 666Q281 666 199 578T117 354T199 131T417 42Q475 42 533 70T626 152Z"/>
<glyph unicode="D" glyph-name="D" horiz-adv-x="741" d="M88 0V708H307Q382 708 443 691T544 647T612 585T655 516T678 447T688 391T690 354T689 318T679 262T656 193T612 124T544 61T444 18T307 0H88ZM154 648V60H290Q439 60 531 134T624 354T532 574T290 648H154Z"/>
<glyph unicode="E" glyph-name="E" horiz-adv-x="593" d="M97 0V708H530V648H163V396H507V336H163V60H546V0H97Z"/>
<glyph unicode="F" glyph-name="F" horiz-adv-x="556" d="M97 0V708H521V648H163V396H496V336H163V0H97Z"/>
<glyph unicode="G" glyph-name="G" horiz-adv-x="778" d="M681 382V46Q569 -18 417 -18Q256 -18 154 86T51 354T153 621T417 726Q575 726 672 628L624 578Q592 617 534 641T417 666Q281 666 199 578T117 354T199 131T417 42Q544 42 615 84V322H445V382H681Z"/>
<glyph unicode="H" glyph-name="H" horiz-adv-x="722" d="M97 0V708H163V396H559V708H625V0H559V336H163V0H97Z"/>
<glyph unicode="I" glyph-name="I" horiz-adv-x="260" d="M97 0V708H163V0H97Z"/>
<glyph unicode="J" glyph-name="J" horiz-adv-x="482" d="M385 708V208Q385 176 383 151T369 92T339 36T281 -2T191 -18Q116 -18 70 20T7 127L73 139Q97 42 191 42Q319 42 319 192V708H385Z"/>
<glyph unicode="K" glyph-name="K" horiz-adv-x="611" d="M97 0V708H163V396H169L512 708H603L245 384L623 0H528L169 366H163V0H97Z"/>
<glyph unicode="L" glyph-name="L" horiz-adv-x="500" d="M97 0V708H163V60H493V0H97Z"/>
<glyph unicode="M" glyph-name="M" horiz-adv-x="889" d="M90 0V708H189L447 114L705 708H799V0H733V624H731L461 0H432L158 624H156V0H90Z"/>
<glyph unicode="N" glyph-name="N" horiz-adv-x="778" d="M97 0V708H182L613 88H615V708H681V0H596L165 620H163V0H97Z"/>
<glyph unicode="O" glyph-name="O" horiz-adv-x="834" d="M51 191T51 354T153 621T417 726T680 622T783 354T681 87T417 -18T154 86ZM117 489T117 354T199 131T417 42T635 130T717 354T635 577T417 666T199 578Z"/>
<glyph unicode="P" glyph-name="P" horiz-adv-x="574" d="M97 0V708H301Q342 708 379 699T452 671T508 613T529 521Q529 430 468 383T316 336H163V0H97ZM163 648V396H313Q377 396 420 426T463 521Q463 585 418 616T309 648H163Z"/>
<glyph unicode="Q" glyph-name="Q" horiz-adv-x="834" d="M813 60V0H423Q271 0 161 102T51 363Q51 520 150 623T410 726T670 623T769 363Q769 266 721 179T592 62V60H813ZM117 363Q117 236 203 148T421 60Q551 60 627 149T703 363Q703 495 624 580T410 666T196 581T117 363Z"/>
<glyph unicode="R" glyph-name="R" horiz-adv-x="593" d="M163 648V396H303Q352 396 387 408T438 441T462 481T469 522T462 562T439 602T387 635T303 648H163ZM97 0V708H283Q535 708 535 522Q535 363 354 340L560 0H485L286 336H163V0H97Z"/>
<glyph unicode="S" glyph-name="S" horiz-adv-x="556" d="M53 89L116 131Q169 42 278 42Q346 42 391 80T437 181Q437 227 410 257T343 300T255 330T167 365T99 426T72 532Q72 622 138 674T299 726Q424 726 492 637L435 596Q385 666 297 666Q229 666 184 631T138 532Q138 489 158 460T210 416T281 389T359 364T430 330T483 273T503 181Q503 89 439 36T283 -18Q129 -18 53 89Z"/>
<glyph unicode="T" glyph-name="T" horiz-adv-x="574" d="M254 0V648H12V708H562V648H320V0H254Z"/>
<glyph unicode="U" glyph-name="U" horiz-adv-x="684" d="M600 708V271Q600 212 587 162T544 71T464 6T342 -18T221 5T140 70T98 162T84 271V708H150V288Q150 254 154 224T170 159T203 100T259 59T342 42T425 58T481 99T513 158T530 223T534 288V708H600Z"/>
<glyph unicode="V" glyph-name="V" horiz-adv-x="593" d="M261 0L-3 708H68L296 87L526 708H596L327 0H261Z"/>
<glyph unicode="W" glyph-name="W" horiz-adv-x="944" d="M211 0L5 708H73L249 81H251L430 708H514L693 81H695L871 708H939L733 0H652L473 630H471L292 0H211Z"/>
<glyph unicode="X" glyph-name="X" horiz-adv-x="611" d="M1 0L267 372L25 708H103L307 420L508 708H587L347 372L610 0H528L304 320L80 0H1Z"/>
<glyph unicode="Y" glyph-name="Y" horiz-adv-x="574" d="M254 0V305L-6 708H73L287 372L506 708H580L320 305V0H254Z"/>
<glyph unicode="Z" glyph-name="Z" horiz-adv-x="556" d="M23 0V52L437 648H29V708H522V654L105 60H533V0H23Z"/>
<glyph unicode="[" glyph-name="bracketleft" horiz-adv-x="260" d="M224 732V684H134V-108H224V-156H74V732H224Z"/>
<glyph unicode="\" glyph-name="backslash" horiz-adv-x="370" d="M57 744L361 -18L308 -36L5 726L57 744Z"/>
<glyph unicode="]" glyph-name="bracketright" horiz-adv-x="260" d="M36 -156V-108H126V684H36V732H186V-156H36Z"/>
<glyph unicode="^" glyph-name="asciicircum" horiz-adv-x="666" d="M82 256L310 708H356L584 256H528L333 654L139 256H82Z"/>
<glyph unicode="_" glyph-name="underscore" horiz-adv-x="500" d="M0 -125V-75H500V-125H0Z"/>
<glyph unicode="`" glyph-name="grave" horiz-adv-x="240" d="M74 708L178 564H128L-6 708H74Z"/>
<glyph unicode="a" glyph-name="a" horiz-adv-x="519" d="M439 307V194Q439 68 448 0H392Q386 34 386 75H384Q334 -12 222 -12Q155 -12 107 22T59 125Q59 280 315 280H385V308Q385 365 350 392T255 420Q175 420 114 368L79 409Q111 439 159 456T255 474Q342 474 390 433T439 307ZM385 232H319Q234 232 177 208T119 128Q119 88 151 65T224 42Q312 42 348 87T385 201V232Z"/>
<glyph unicode="b" glyph-name="b" horiz-adv-x="611" d="M67 0V756H127V381H129Q155 426 206 450T314 474Q420 474 488 406T557 231T489 57T314 -12Q258 -12 207 12T129 81H127V0H67ZM121 309T121 231T177 98T314 42Q397 42 447 96T497 231T447 365T314 420Q233 420 177 365Z"/>
<glyph unicode="c" glyph-name="c" horiz-adv-x="481" d="M421 106L467 68Q400 -12 297 -12Q191 -12 123 56T54 231T122 405T297 474Q398 474 469 394L421 358Q364 420 297 420Q214 420 164 366T114 231T164 97T297 42Q369 42 421 106Z"/>
<glyph unicode="d" glyph-name="d" horiz-adv-x="611" d="M484 0V81H482Q456 36 405 12T297 -12Q191 -12 123 56T54 231T122 405T297 474Q353 474 404 450T482 381H484V756H544V0H484ZM490 153T490 231T434 364T297 420Q214 420 164 366T114 231T164 97T297 42Q378 42 434 97Z"/>
<glyph unicode="e" glyph-name="e" horiz-adv-x="556" d="M444 124L488 87Q422 -12 288 -12Q183 -12 119 56T54 232Q54 336 119 405T285 474T444 410T502 258V216H114Q114 199 118 179T135 134T166 89T217 56T289 42Q335 42 378 64T444 124ZM114 270H442Q442 332 395 376T282 420Q237 420 202 401T149 354T123 304T114 270Z"/>
<glyph unicode="f" glyph-name="f" horiz-adv-x="296" d="M114 0V408H18V462H114V613Q114 694 156 731T252 768Q294 768 321 756L309 704Q289 714 255 714Q174 714 174 591V462H282V408H174V0H114Z"/>
<glyph unicode="g" glyph-name="g" horiz-adv-x="611" d="M544 462V30Q544 -36 527 -86T485 -164T425 -211T360 -234T298 -240Q228 -240 166 -214T69 -143L116 -99Q178 -186 298 -186Q484 -186 484 26V90H482Q425 0 307 0Q205 0 133 69T60 237T132 404T307 474Q425 474 482 384H484V462H544ZM486 161T486 237T433 366T303 420T174 367T120 237T173 108T303 54T432 107Z"/>
<glyph unicode="h" glyph-name="h" horiz-adv-x="556" d="M80 0V756H140V381H142Q161 421 203 447T300 474Q476 474 476 275V0H416V272Q416 420 300 420Q230 420 185 371T140 231V0H80Z"/>
<glyph unicode="i" glyph-name="i" horiz-adv-x="240" d="M90 0V462H150V0H90ZM75 626T75 645T88 677T120 690T152 677T165 645T152 613T120 600T88 613Z"/>
<glyph unicode="j" glyph-name="j" horiz-adv-x="240" d="M150 462V-81Q150 -159 122 -199T18 -240Q-6 -240 -30 -231L-21 -178Q0 -186 17 -186Q61 -186 75 -160T90 -86V462H150ZM75 626T75 645T88 677T120 690T152 677T165 645T152 613T120 600T88 613Z"/>
<glyph unicode="k" glyph-name="k" horiz-adv-x="481" d="M80 0V756H140V252L368 461H456L218 250L484 0H393L140 244V0H80Z"/>
<glyph unicode="l" glyph-name="l" horiz-adv-x="240" d="M90 0V756H150V0H90Z"/>
<glyph unicode="m" glyph-name="m" horiz-adv-x="852" d="M80 0V332Q80 350 78 400T75 462H135Q137 389 139 381H142Q161 421 203 447T300 474Q348 474 385 449T439 374Q460 423 502 448T596 474Q772 474 772 275V0H712V272Q712 420 596 420Q557 420 528 405T484 364T463 313T456 260V0H396V278Q396 344 372 382T300 420Q230 420 185 371T140 231V0H80Z"/>
<glyph unicode="n" glyph-name="n" horiz-adv-x="556" d="M80 0V332Q80 350 78 400T75 462H135Q137 389 139 381H142Q161 421 203 447T300 474Q476 474 476 275V0H416V272Q416 420 300 420Q230 420 185 371T140 231V0H80Z"/>
<glyph unicode="o" glyph-name="o" horiz-adv-x="594" d="M54 125T54 231T122 405T297 474T471 406T540 231T472 57T297 -12T123 56ZM114 311T114 231T164 97T297 42T430 96T480 231T430 365T297 420T164 366Z"/>
<glyph unicode="p" glyph-name="p" horiz-adv-x="611" d="M67 -228V462H127V381H129Q155 426 206 450T314 474Q420 474 488 406T557 231T489 57T314 -12Q258 -12 207 12T129 81H127V-228H67ZM121 309T121 231T177 98T314 42Q397 42 447 96T497 231T447 365T314 420Q233 420 177 365Z"/>
<glyph unicode="q" glyph-name="q" horiz-adv-x="611" d="M484 -228V81H482Q456 36 405 12T297 -12Q191 -12 123 56T54 231T122 405T297 474Q353 474 404 450T482 381H484V462H544V-228H484ZM490 153T490 231T434 364T297 420Q214 420 164 366T114 231T164 97T297 42Q378 42 434 97Z"/>
<glyph unicode="r" glyph-name="r" horiz-adv-x="333" d="M80 0V332Q80 350 78 400T75 462H135Q137 389 139 381Q191 474 286 474Q301 474 321 469L314 410Q302 414 291 414Q216 414 178 369T140 252V0H80Z"/>
<glyph unicode="s" glyph-name="s" horiz-adv-x="426" d="M28 82L81 118Q99 82 136 62T215 42T289 65T321 127Q321 162 293 180T225 207T144 225T75 264T47 341Q47 404 94 439T205 474Q324 474 368 387L314 355Q278 420 205 420Q169 420 138 400T107 346T135 295T203 270T284 252T353 213T381 131Q381 63 333 26T214 -12Q81 -12 28 82Z"/>
<glyph unicode="t" glyph-name="t" horiz-adv-x="333" d="M306 462V408H174V107Q174 76 191 59T238 42Q269 42 306 58L311 4Q267 -12 233 -12Q172 -12 143 21T114 107V408H14V462H114V595H174V462H306Z"/>
<glyph unicode="u" glyph-name="u" horiz-adv-x="556" d="M471 462V130Q471 112 473 62T476 0H416Q414 73 412 81H409Q390 41 348 15T251 -12Q75 -12 75 187V462H135V190Q135 42 251 42Q321 42 366 91T411 231V462H471Z"/>
<glyph unicode="v" glyph-name="v" horiz-adv-x="463" d="M204 0L15 462H83L237 65L387 462H448L266 0H204Z"/>
<glyph unicode="w" glyph-name="w" horiz-adv-x="704" d="M160 0L15 462H81L193 75H195L324 462H381L518 75H520L629 462H689L553 0H491L353 378H351L222 0H160Z"/>
<glyph unicode="x" glyph-name="x" horiz-adv-x="481" d="M6 0L198 250L33 462H110L238 287L365 462H440L277 250L475 0H397L236 209L78 0H6Z"/>
<glyph unicode="y" glyph-name="y" horiz-adv-x="463" d="M448 462L210 -143Q172 -240 83 -240Q58 -240 24 -231L30 -175Q67 -186 84 -186Q113 -186 130 -165T161 -109L203 -2L15 462H82L235 73L384 462H448Z"/>
<glyph unicode="z" glyph-name="z" horiz-adv-x="426" d="M27 0V36L304 408H41V462H387V426L111 54H399V0H27Z"/>
<glyph unicode="{" glyph-name="braceleft" horiz-adv-x="333" d="M274 732V684H251Q222 684 209 656T196 586V445Q196 398 181 360T151 308T126 289V287Q137 281 151 267T180 216T196 131V-11Q196 -52 209 -80T251 -108H274V-156H224Q182 -156 159 -124T136 -35V111Q136 264 66 264V312Q136 312 136 466V611Q136 668 159 700T224 732H274Z"/>
<glyph unicode="|" glyph-name="bar" horiz-adv-x="222" d="M87 750H135V-250H87V750Z"/>
<glyph unicode="}" glyph-name="braceright" horiz-adv-x="333" d="M59 -156V-108H82Q111 -108 124 -80T137 -10V131Q137 178 152 216T182 268T207 287V289Q196 295 182 309T153 360T137 445V587Q137 628 124 656T82 684H59V732H109Q151 732 174 700T197 611V465Q197 312 267 312V264Q197 264 197 110V-35Q197 -92 174 -124T109 -156H59Z"/>
<glyph unicode="~" glyph-name="asciitilde" horiz-adv-x="666" d="M529 364L563 332Q520 242 438 242Q406 242 323 278Q251 310 225 310Q198 310 178 293T137 242L103 274Q150 364 228 364Q260 364 343 328Q415 296 441 296Q468 296 488 313T529 364Z"/>
</font>
</defs>
</svg>
